<?xml version="1.0" standalone="no"?>
<!DOCTYPE svg PUBLIC "-//W3C//DTD SVG 1.1//EN" "http://www.w3.org/Graphics/SVG/1.1/DTD/svg11.dtd" >
<svg xmlns="http://www.w3.org/2000/svg">
<metadata>
This is a custom SVG webfont generated by Font Squirrel.
Copyright   : 251 Dutch Design AlbertJan Pool 1995 Published by FontShop International FontFont release 15
</metadata>
<defs>
<font id="DINRegular" horiz-adv-x="1112" >
<font-face units-per-em="2048" ascent="1638" descent="-410" />
<missing-glyph horiz-adv-x="475" />
<glyph unicode="&#xd;" horiz-adv-x="563" d="M150 0h266v1067h-266v-1067z" />
<glyph horiz-adv-x="1024" d="M244 1464q0 -55 21.5 -104t57 -85t85 -57.5t104.5 -21.5t104.5 21.5t85 57.5t57 85t21.5 104t-21.5 104.5t-57 86.5t-85 57.5t-104.5 20.5t-104.5 -21.5t-85 -57.5t-57 -85.5t-21.5 -104.5zM393 1464q0 49 35 84t84 35t84 -35t35 -84t-35 -85t-84 -36t-84 36t-35 85z" />
<glyph unicode=" "  horiz-adv-x="475" />
<glyph unicode="&#x09;" horiz-adv-x="475" />
<glyph unicode="&#xa0;" horiz-adv-x="475" />
<glyph unicode="!" horiz-adv-x="710" d="M229 1458l64 -1001h201l63 1001h-328zM252 0h283v272h-283v-272z" />
<glyph unicode="&#x22;" horiz-adv-x="950" d="M139 1026h250v432h-250v-432zM561 1026h248v432h-248v-432z" />
<glyph unicode="#" horiz-adv-x="1415" d="M123 389h141l-61 -389h280l62 389h237l-63 -389h280l62 389h182v250h-141l33 221h182v248h-141l55 362h-279l-57 -362h-238l58 362h-281l-57 -362h-182v-248h143l-33 -221h-182v-250zM584 639l34 221h236l-33 -221h-237z" />
<glyph unicode="$" horiz-adv-x="1267" d="M39 180q100 -102 218 -145t265 -47v-221h207v229q96 12 177 46t139.5 89t91 130t32.5 169q0 98 -26.5 175t-85.5 132q-47 43 -112.5 71t-166.5 44l-78 12v357q63 -4 132 -27t120 -72l181 178q-84 80 -181.5 120t-222.5 48v183h-207v-185q-201 -23 -313.5 -141.5 t-112.5 -296.5q0 -180 105 -285q47 -47 118.5 -78.5t163.5 -43.5l66 -9v-370q-92 4 -176 30.5t-150 92.5zM371 1038q0 68 44 118t134 63v-342q-88 12 -135 57q-23 23 -33 49t-10 55zM700 246v352q41 -6 78 -15.5t68 -37.5q45 -43 45 -123q0 -76 -49.5 -121t-141.5 -55z" />
<glyph unicode="%" horiz-adv-x="1736" d="M106 987q0 -70 24 -122t65 -88t94 -53t114 -17q59 0 113.5 17t95.5 53t64.5 88.5t23.5 121.5v203q0 70 -23.5 122t-64.5 87t-95 53t-114 18q-61 0 -114 -18t-94 -53t-65 -87t-24 -122v-203zM299 995v187q0 117 104 116q49 0 77 -28.5t28 -87.5v-187q0 -59 -27.5 -87.5 t-77.5 -28.5q-49 0 -76.5 28.5t-27.5 87.5zM420 0h209l690 1458h-209zM1036 268q0 -70 23.5 -122t64.5 -87.5t94.5 -53t114.5 -17.5q59 0 113.5 17.5t95.5 53t64.5 88t23.5 121.5v203q0 70 -23.5 122t-64.5 87t-95 53.5t-114 18.5q-61 0 -114.5 -18.5t-94.5 -53.5t-64.5 -87 t-23.5 -122v-203zM1229 276v187q0 117 104 117q49 0 77 -29t28 -88v-187q0 -59 -28 -87.5t-77 -28.5q-104 -1 -104 116z" />
<glyph unicode="&#x26;" horiz-adv-x="1476" d="M123 430q0 -207 119.5 -324.5t361.5 -117.5q78 0 137.5 14t104.5 35.5t77.5 45t57.5 44.5l106 -127h338l-262 309q78 86 113 199t43 254h-252q-4 -78 -21.5 -143.5t-52.5 -112.5l-245 291q18 12 43.5 30.5t42 30.5t18.5 14q68 49 108.5 108.5t40.5 145.5 q0 74 -25.5 137.5t-74.5 109.5t-117.5 71.5t-154.5 25.5q-92 0 -164 -25.5t-122 -70.5t-76.5 -107.5t-26.5 -136.5q0 -53 14 -98t35.5 -83t47 -70.5t48.5 -57.5q-47 -31 -94 -69.5t-84 -87t-60.5 -106.5t-23.5 -128zM381 434q0 78 41 127t106 96l291 -342 q-51 -45 -101 -65.5t-116 -20.5q-47 0 -87 15.5t-69.5 42t-47 64.5t-17.5 83zM508 1124q0 51 30.5 85t90.5 34q57 0 89 -33.5t32 -85.5q0 -39 -25 -68.5t-59 -54.5l-23 -15q-23 -15 -39 -25q-39 45 -67.5 83.5t-28.5 79.5z" />
<glyph unicode="'" horiz-adv-x="530" d="M139 1026h252v432h-252v-432z" />
<glyph unicode="(" horiz-adv-x="688" d="M164 283q0 -68 9 -135.5t44 -129.5q35 -59 82 -109t98 -102l178 179q-37 37 -62.5 64.5t-51.5 72.5q-31 55 -31 172v868q0 117 31 172q27 45 52.5 73t61.5 65l-178 178q-51 -51 -98 -101.5t-82 -109.5q-35 -61 -44 -129t-9 -135v-893z" />
<glyph unicode=")" horiz-adv-x="688" d="M111 -12l180 -181q51 51 98 101.5t82 109.5q35 61 44 129t9 136v893q0 68 -9 135t-44 129q-35 59 -82 109t-98 102l-180 -181q37 -37 62.5 -63.5t51.5 -71.5q31 -55 31 -172v-868q0 -117 -31 -172q-27 -45 -52 -71.5t-62 -63.5z" />
<glyph unicode="*" horiz-adv-x="1011" d="M113 942l92 -162l217 135l-10 -256h188l-8 256l215 -135l94 162l-227 119l227 119l-94 163l-215 -137l8 256h-188l10 -256l-217 137l-92 -163l225 -119z" />
<glyph unicode="+" d="M102 442h330v-327h250v327h328v250h-328v328h-250v-328h-330v-250z" />
<glyph unicode="," horiz-adv-x="571" d="M139 291v-629l293 225v404h-293z" />
<glyph unicode="-" horiz-adv-x="872" d="M121 461h631v248h-631v-248z" />
<glyph unicode="." horiz-adv-x="583" d="M139 0h305v303h-305v-303z" />
<glyph unicode="/" horiz-adv-x="825" d="M0 -152h250l584 1762h-250z" />
<glyph unicode="0" d="M113 422q0 -104 35.5 -185t97 -136.5t141.5 -84t170 -28.5q88 0 169 28.5t141.5 84t96 136t35.5 185.5v614q0 104 -35.5 185.5t-96 136.5t-141.5 83.5t-169 28.5q-90 0 -170 -28.5t-141.5 -83.5t-97 -136t-35.5 -186v-614zM379 424v608q0 92 50 145.5t128 53.5t127 -53.5 t49 -145.5v-608q0 -92 -49 -144.5t-127 -52.5t-128 52.5t-50 144.5z" />
<glyph unicode="1" d="M211 913l297 258v-1171h266v1458h-266l-297 -258v-287z" />
<glyph unicode="2" d="M121 0h887v240h-564l408 473q37 43 66.5 80.5t49 76.5t30 81t10.5 96q0 98 -33 177t-91.5 133t-140 83.5t-178.5 29.5q-94 0 -175 -28.5t-141.5 -83.5t-94 -134t-33.5 -180h266q0 53 15.5 89t41 57.5t57 31t64.5 9.5q86 0 131 -50.5t45 -131.5q0 -51 -17 -90t-58 -87 l-545 -632v-240z" />
<glyph unicode="3" d="M86 418q2 -115 41 -196t103.5 -133t147.5 -76.5t173 -24.5q94 0 178 26.5t147.5 81t100.5 136t37 190.5q0 133 -55.5 212t-133.5 120q72 39 120 109.5t48 189.5q0 92 -32.5 168.5t-92 132t-141.5 86t-178 30.5q-92 0 -173 -28.5t-140.5 -81.5t-95.5 -130t-38 -175h267 q4 84 54 130t126 46q72 0 125 -47t53 -140q0 -78 -43 -130t-141 -52h-39v-231h39q98 0 151.5 -54.5t53.5 -146.5q0 -98 -55.5 -150.5t-141.5 -52.5q-39 0 -75 11.5t-62.5 35t-43 59.5t-18.5 85h-266z" />
<glyph unicode="4" d="M63 207h596v-207h256v207h134v252h-134v272h-256v-272h-305l500 999h-291l-500 -999v-252z" />
<glyph unicode="5" d="M117 408q6 -80 28.5 -158t90.5 -146q47 -47 128.5 -81.5t196.5 -34.5t194 34.5t128 83.5q80 80 104.5 171.5t24.5 214.5q0 104 -22.5 203.5t-108.5 185.5q-45 45 -113 71.5t-160 26.5q-74 0 -132 -22.5t-87 -51.5v314h590v239h-832v-823h244q14 43 54 81t122 38 q98 0 138 -68t40 -194q0 -70 -11 -126.5t-46 -91.5q-47 -47 -127 -47q-84 0 -126 47.5t-52 133.5h-266z" />
<glyph unicode="6" d="M98 438q0 -109 35 -192.5t96.5 -141t144.5 -87t179 -29.5t179 30.5t144.5 89t96.5 142.5t35 192q0 100 -32 181.5t-86 136.5t-123 84.5t-142 29.5q-27 0 -54.5 -4t-54.5 -14l303 602h-291l-307 -631q-49 -100 -86 -194.5t-37 -194.5zM365 440q0 102 53 157.5t135 55.5 q86 0 137 -57t51 -156q0 -102 -53 -157.5t-135 -55.5t-135 55.5t-53 157.5z" />
<glyph unicode="7" d="M102 989h254v230h385l-473 -1219h289l473 1219v239h-928v-469z" />
<glyph unicode="8" d="M90 424q0 -106 37 -187t100.5 -136.5t148.5 -84t181 -28.5t181 28.5t148.5 84t100.5 136t37 187.5q0 68 -17.5 119t-45 91t-59.5 68.5t-62 49.5q27 18 56.5 46.5t53 65.5t39 84t15.5 107q0 96 -36 173t-96.5 131t-141.5 82.5t-173 28.5t-173 -28.5t-142.5 -82.5t-97 -131 t-35.5 -173q0 -59 15 -106.5t38.5 -84.5t52.5 -65.5t57 -46.5q-31 -20 -62.5 -49t-58 -69t-44 -91t-17.5 -119zM356 428q0 86 57.5 144.5t143.5 58.5t143.5 -58.5t57.5 -144.5t-57.5 -143.5t-143.5 -57.5t-143.5 57.5t-57.5 143.5zM375 1047q0 78 52 131t130 53t129 -53.5 t51 -130.5q0 -80 -51 -132.5t-129 -52.5t-130 52.5t-52 132.5z" />
<glyph unicode="9" d="M104 1016q0 -102 33 -182t86 -135.5t123 -85t143 -29.5q27 0 54.5 4t54.5 14l-303 -602h289l309 631q49 100 85 194.5t36 194.5q0 109 -35 192.5t-96.5 141t-144.5 87t-179 29.5t-179 -30.5t-144.5 -89t-96.5 -143.5t-35 -191zM371 1018q0 102 53 157.5t135 55.5 t135.5 -55.5t53.5 -157.5t-53.5 -157.5t-135.5 -55.5q-86 0 -137 57.5t-51 155.5z" />
<glyph unicode=":" horiz-adv-x="632" d="M190 0h304v303h-304v-303zM190 555h304v303h-304v-303z" />
<glyph unicode=";" horiz-adv-x="632" d="M190 555h304v303h-304v-303zM197 291v-629l290 225v404h-290z" />
<glyph unicode="&#x3c;" horiz-adv-x="2103" d="M102 584l789 -789h336l-668 664h1440v252h-1440l668 661h-336z" />
<glyph unicode="=" d="M102 238h908v249h-908v-249zM102 682h908v250h-908v-250z" />
<glyph unicode="&#x3e;" horiz-adv-x="2103" d="M102 459h1442l-667 -664h335l789 789l-789 788h-335l667 -661h-1442v-252z" />
<glyph unicode="?" horiz-adv-x="1071" d="M135 1061h266q0 72 41 121t123 49q78 0 122 -48t44 -120q0 -35 -17.5 -70t-41.5 -67l-152 -195q-41 -53 -59.5 -100t-18.5 -113v-61h267v43q0 27 10 55.5t26 48.5l152 201q43 57 71.5 117.5t28.5 138.5q0 98 -34.5 174t-94 128t-138.5 79.5t-165 27.5q-90 0 -168 -28.5 t-136 -80.5t-92 -129t-34 -171zM434 0h283v272h-283v-272z" />
<glyph unicode="@" horiz-adv-x="1552" d="M117 342q0 -70 9 -122t28.5 -95t50.5 -80t74 -76l184 185q-25 23 -42.5 42t-28.5 42.5t-15 51t-4 66.5v592q0 66 13 115t58 94q43 43 93.5 57.5t111.5 14.5h254q61 0 112.5 -15.5t92.5 -56.5t56.5 -92t15.5 -117v-92q-47 51 -105.5 75.5t-136.5 24.5q-80 0 -146.5 -27.5 t-111.5 -76.5q-61 -68 -77.5 -155t-16.5 -224q0 -70 3 -125t13 -101t29.5 -85t50.5 -72q96 -102 258 -102q86 0 141.5 26.5t104.5 79.5v-94l248 -6v960q0 127 -27 221.5t-98 165.5q-72 72 -168.5 98.5t-216.5 26.5h-295q-125 0 -219.5 -26.5t-165.5 -98.5 q-72 -72 -99.5 -167t-27.5 -220v-612zM842 473q0 123 34.5 192.5t133.5 69.5q98 0 134 -69.5t36 -192.5t-36 -193.5t-134 -70.5t-133 70.5t-35 193.5z" />
<glyph unicode="A" horiz-adv-x="1306" d="M10 0h297l88 258h518l86 -258h297l-532 1458h-223zM475 498l184 530l179 -530h-363z" />
<glyph unicode="B" horiz-adv-x="1347" d="M170 0h610q98 0 180 27.5t141.5 81t92.5 131t33 180.5q0 74 -19.5 128t-48.5 93t-64.5 64.5t-68.5 42.5q27 12 58.5 38.5t59 64.5t45 87t17.5 111q0 188 -117.5 298.5t-332.5 110.5h-586v-1458zM455 254v358h297q98 0 144 -52t46 -126t-46 -127t-144 -53h-297zM455 868 v336h278q92 0 140.5 -46t48.5 -122t-48.5 -122t-140.5 -46h-278z" />
<glyph unicode="C" horiz-adv-x="1269" d="M121 729q0 -94 2 -176t14.5 -153.5t42 -134t84.5 -118.5q78 -78 175.5 -118.5t217.5 -40.5q100 0 190.5 28.5t161 87t119 144.5t66.5 201h-289q-23 -88 -80 -147.5t-166 -59.5q-59 0 -105 20.5t-77 54.5q-20 23 -34.5 50.5t-22.5 72.5t-11 115t-3 174t3 174t11 115 t22.5 72.5t34.5 50.5q31 35 77 55.5t105 20.5q109 0 166.5 -59.5t79.5 -147.5h289q-18 115 -66.5 200.5t-119 144t-159.5 87t-192 28.5q-121 0 -218 -40.5t-175 -118.5q-55 -55 -84.5 -118t-42 -134.5t-14.5 -153.5t-2 -176z" />
<glyph unicode="D" horiz-adv-x="1349" d="M170 0h526q115 0 214.5 34t170.5 105q61 61 92 131t43.5 146t12.5 155v164v160q0 80 -12.5 153.5t-43 141t-92.5 129.5q-72 72 -171 105.5t-214 33.5h-526v-1458zM455 254v950h215q74 0 125 -22.5t88 -67.5q20 -25 32.5 -55.5t18.5 -75.5t8 -105.5t2 -142.5 q0 -166 -11 -254t-50 -137q-37 -45 -88.5 -67.5t-124.5 -22.5h-215z" />
<glyph unicode="E" horiz-adv-x="1239" d="M170 0h960v254h-675v354h575v254h-575v342h675v254h-960v-1458z" />
<glyph unicode="F" horiz-adv-x="1208" d="M170 0h285v592h575v254h-575v358h675v254h-960v-1458z" />
<glyph unicode="G" horiz-adv-x="1327" d="M121 729q0 -94 2 -176t14.5 -153.5t42 -134t84.5 -118.5q78 -78 175.5 -118.5t217.5 -40.5q117 0 220.5 36.5t191.5 129.5q76 80 107.5 183t31.5 261v213h-551v-238h269v-55q0 -57 -15.5 -105t-50.5 -89q-35 -39 -86 -60.5t-117 -21.5q-59 0 -105 20.5t-77 54.5 q-20 23 -33.5 50.5t-21.5 72.5t-11 115t-3 174t3 173t11 114t21.5 72.5t33.5 50.5q31 35 77 56.5t105 21.5q111 0 174.5 -54.5t88.5 -158.5h286q-14 92 -54 176t-107.5 148.5t-164 103t-223.5 38.5q-123 0 -219 -40.5t-174 -118.5q-55 -55 -84.5 -118t-42 -134.5 t-14.5 -153.5t-2 -176z" />
<glyph unicode="H" horiz-adv-x="1402" d="M170 0h285v610h493v-610h285v1458h-285v-596h-493v596h-285v-1458z" />
<glyph unicode="I" horiz-adv-x="624" d="M170 0h285v1458h-285v-1458z" />
<glyph unicode="J" horiz-adv-x="1046" d="M6 137q82 -82 169 -115.5t206 -33.5q100 0 193.5 31.5t165 93t113.5 153.5t42 213v979h-285v-966q0 -127 -62.5 -188.5t-166.5 -61.5q-72 0 -112 23.5t-74 58.5z" />
<glyph unicode="K" horiz-adv-x="1361" d="M170 0h285v438l188 226l375 -664h332l-519 879l484 579h-346l-514 -635v635h-285v-1458z" />
<glyph unicode="L" horiz-adv-x="1177" d="M170 0h946v254h-661v1204h-285v-1458z" />
<glyph unicode="M" horiz-adv-x="1660" d="M170 0h285v850l280 -553h193l278 553v-850h285v1458h-281l-379 -788l-380 788h-281v-1458z" />
<glyph unicode="N" horiz-adv-x="1456" d="M170 0h285v895l577 -895h254v1458h-285v-893l-577 893h-254v-1458z" />
<glyph unicode="O" horiz-adv-x="1318" d="M121 729q0 -94 2 -176t14.5 -153.5t42 -134t84.5 -118.5q78 -78 174.5 -118.5t220.5 -40.5q125 0 220.5 41t173.5 118q55 55 84.5 118t43 134.5t15.5 153.5t2 176t-2 176t-15.5 153.5t-43 134t-84.5 118.5q-78 78 -173.5 118.5t-220.5 40.5t-221 -40.5t-174 -118.5 q-55 -55 -84.5 -118t-42 -134.5t-14.5 -153.5t-2 -176zM406 729q0 104 3 173t11 114t21.5 72.5t33.5 50.5q31 35 78 56.5t106 21.5t105.5 -21.5t77.5 -56.5q20 -23 34.5 -50.5t22.5 -72.5t11 -113.5t3 -173.5q0 -104 -3 -173t-11 -114t-22.5 -72.5t-34.5 -50.5 q-31 -35 -77 -56t-106 -21q-59 0 -106 21.5t-78 55.5q-20 23 -33.5 50.5t-21.5 72.5t-11 114t-3 173z" />
<glyph unicode="P" horiz-adv-x="1286" d="M170 0h285v549h280q113 0 202 36t151.5 98t95.5 145t33 176q0 92 -33 175t-95.5 145t-151.5 98t-202 36h-565v-1458zM455 805v399h266q98 0 154.5 -55t56.5 -145t-56.5 -144.5t-154.5 -54.5h-266z" />
<glyph unicode="Q" horiz-adv-x="1316" d="M121 729q0 -94 2 -176t14.5 -153.5t42 -134t84.5 -118.5q78 -78 174.5 -118.5t220.5 -40.5q172 0 295 80l129 -129l150 149l-125 125q35 51 53.5 107.5t26.5 120t9 135t1 153.5q0 94 -2 176t-15.5 153.5t-43 134t-84.5 118.5q-78 78 -173.5 118.5t-220.5 40.5t-221 -40.5 t-174 -118.5q-55 -55 -84.5 -118t-42 -134.5t-14.5 -153.5t-2 -176zM406 729q0 104 3 173t11 114t21.5 72.5t33.5 50.5q31 35 78 56.5t106 21.5t105.5 -21.5t77.5 -56.5q20 -23 34.5 -50.5t22.5 -72.5t11 -113.5t3 -173.5q0 -111 -5 -179.5t-21 -115.5l-109 109l-151 -150 l127 -125q-39 -27 -95 -26q-59 0 -106 21.5t-78 55.5q-20 23 -33.5 50.5t-21.5 72.5t-11 114t-3 173z" />
<glyph unicode="R" horiz-adv-x="1339" d="M170 0h285v582h204l285 -582h330l-326 629q53 18 101.5 52t85 82t58 109.5t21.5 139.5q0 92 -31.5 173t-93 141t-149.5 96t-199 36h-571v-1458zM455 819v385h268q94 0 150.5 -53t56.5 -139t-56.5 -139.5t-150.5 -53.5h-268z" />
<glyph unicode="S" horiz-adv-x="1210" d="M39 180q106 -109 236.5 -150.5t295.5 -41.5q115 0 213.5 29.5t171 86t114.5 138.5t42 188q0 98 -26.5 176t-86.5 133q-47 43 -112.5 71t-165.5 42l-172 25q-45 6 -79 21t-56 36q-23 23 -33 49.5t-10 54.5q0 76 55 130.5t170 54.5q72 0 150.5 -17.5t148.5 -83.5l180 178 q-94 92 -206.5 131t-264.5 39q-119 0 -213 -32.5t-159.5 -91t-100.5 -139.5t-35 -179q0 -182 105 -287q96 -94 282 -120l176 -25q51 -8 79 -19.5t50 -31.5q45 -43 46 -123q0 -88 -66 -134t-193 -46q-102 0 -192 26.5t-160 96.5z" />
<glyph unicode="T" horiz-adv-x="1169" d="M61 1204h381v-1204h285v1204h381v254h-1047v-254z" />
<glyph unicode="U" horiz-adv-x="1368" d="M147 500q0 -117 42 -211t115 -161t170 -103.5t210 -36.5t210 36.5t170 103.5t115 161t42 211v958h-283v-948q0 -127 -68.5 -197.5t-185.5 -70.5t-184.5 70.5t-67.5 197.5v948h-285v-958z" />
<glyph unicode="V" horiz-adv-x="1189" d="M6 1458l481 -1458h213l484 1458h-297l-293 -950l-293 950h-295z" />
<glyph unicode="W" horiz-adv-x="1816" d="M12 1458l389 -1458h238l268 885l269 -885h237l391 1458h-297l-227 -919l-266 919h-213l-266 -919l-226 919h-297z" />
<glyph unicode="X" horiz-adv-x="1234" d="M10 0h326l280 508l283 -508h326l-455 748l424 710h-322l-256 -471l-254 471h-323l424 -710z" />
<glyph unicode="Y" horiz-adv-x="1171" d="M6 1458l438 -860v-598h283v598l438 860h-309l-268 -588l-273 588h-309z" />
<glyph unicode="Z" horiz-adv-x="1122" d="M82 0h958v254h-624l624 979v225h-931v-254h596l-623 -975v-229z" />
<glyph unicode="[" horiz-adv-x="774" d="M164 -152h526v240h-260v1282h260v240h-526v-1762z" />
<glyph unicode="\" horiz-adv-x="825" d="M0 1583l575 -1735h250l-575 1735h-250z" />
<glyph unicode="]" horiz-adv-x="774" d="M86 86v-238h526v1762h-526v-238h260v-1286h-260z" />
<glyph unicode="^" horiz-adv-x="1232" d="M129 797h279l208 385l209 -385h279l-365 676h-245z" />
<glyph unicode="_" horiz-adv-x="1232" d="M0 -186v-179h1233v179h-1233z" />
<glyph unicode="`" horiz-adv-x="1024" d="M213 1585l233 -348h179l-131 348h-281z" />
<glyph unicode="a" horiz-adv-x="1093" d="M74 324q0 -72 22.5 -133.5t65.5 -106.5q94 -94 272 -94q92 0 150.5 24.5t111.5 77.5v-92h260v702q0 188 -114.5 282.5t-339.5 94.5q-133 0 -220 -30.5t-165 -116.5l170 -166q20 25 40.5 41t44 26.5t52.5 15.5t68 5q106 0 152 -40t46 -128v-53h-252q-92 0 -160.5 -24.5 t-113.5 -66.5t-67.5 -98.5t-22.5 -119.5zM330 330q0 57 39 89t110 32h211v-58q0 -98 -39 -135q-35 -35 -73.5 -43t-94.5 -8q-78 0 -115.5 34t-37.5 89z" />
<glyph unicode="b" horiz-adv-x="1146" d="M150 0h258v100q55 -61 117.5 -86.5t148.5 -25.5q78 0 146.5 25.5t113.5 70.5q39 39 61.5 92t32.5 112.5t12 123t2 123.5q0 59 -2 121.5t-12 122t-32.5 111.5t-61.5 93q-45 45 -113.5 70.5t-146.5 25.5q-82 0 -143.5 -23.5t-114.5 -82.5v485h-266v-1458zM416 535 q0 66 6 121t24.5 96t54.5 64.5t95 23.5t95 -23.5t54.5 -64.5t24.5 -96.5t6 -120.5q0 -66 -6 -122.5t-24.5 -97.5t-54.5 -64.5t-95 -23.5t-95 23.5t-54.5 64.5t-24.5 97.5t-6 122.5z" />
<glyph unicode="c" horiz-adv-x="983" d="M96 535q0 -162 45 -267.5t114 -168t154 -87t164 -24.5q111 0 196 35.5t157 109.5l-181 178q-41 -45 -79.5 -64.5t-92.5 -19.5q-94 0 -151 70q-59 74 -60 238q0 86 14.5 141t45.5 94q57 70 151 70q53 0 92.5 -19.5t79.5 -64.5l181 180q-72 74 -157 108.5t-196 34.5 q-80 0 -164.5 -24.5t-153.5 -86t-114 -166.5t-45 -267z" />
<glyph unicode="d" horiz-adv-x="1148" d="M104 535q0 -59 2.5 -123t12.5 -123.5t31.5 -112.5t62.5 -92q45 -45 114.5 -70.5t147.5 -25.5q86 0 147.5 25.5t116.5 86.5v-100h260v1458h-266v-485q-53 59 -115.5 82.5t-144.5 23.5q-78 0 -146.5 -25.5t-113.5 -70.5q-41 -41 -62.5 -93t-31.5 -111.5t-12.5 -122 t-2.5 -121.5zM371 535q0 66 6 121t24.5 96t54.5 64.5t95 23.5t95 -23.5t55.5 -64.5t25.5 -96.5t6 -120.5q0 -66 -6 -122.5t-25.5 -97.5t-55.5 -64.5t-95 -23.5t-95 23.5t-54.5 64.5t-24.5 97.5t-6 122.5z" />
<glyph unicode="e" horiz-adv-x="1122" d="M96 535q0 -162 42 -267.5t110.5 -168t158 -87t183.5 -24.5q72 0 129 11t105 32.5t89 52.5t82 72l-161 157q-51 -51 -102.5 -75.5t-139.5 -24.5q-113 0 -173.5 66.5t-60.5 171.5h668v118q0 111 -30.5 204t-90 160.5t-146.5 106.5t-198 39q-104 0 -189 -35.5t-146.5 -105.5 t-95.5 -171t-34 -232zM358 633q2 35 7.5 60.5t17.5 54.5q23 47 67 78.5t111 31.5q68 0 112 -31.5t66 -78.5q12 -29 17.5 -54.5t7.5 -60.5h-406z" />
<glyph unicode="f" horiz-adv-x="700" d="M72 834h110v-834h267v834h196v202h-196v117q0 96 92 96h104v226h-151q-82 0 -140.5 -27t-96.5 -70t-56.5 -97t-18.5 -112v-133h-110v-202z" />
<glyph unicode="g" horiz-adv-x="1136" d="M104 563q0 -70 3.5 -131t13.5 -113.5t32.5 -97.5t59.5 -82q45 -45 110.5 -69.5t143.5 -24.5t139.5 23.5t114.5 83.5v-109q0 -41 -11.5 -81t-37 -70.5t-66.5 -50t-100 -19.5q-68 0 -116 19.5t-93 62.5l-166 -168q84 -80 174 -109.5t213 -29.5q106 0 193.5 32.5t149 92 t94 140.5t32.5 177v1028h-258v-100q-55 61 -114.5 86.5t-145.5 25.5q-78 0 -144.5 -24.5t-111.5 -69.5q-37 -37 -59.5 -82t-32.5 -97t-13.5 -112.5t-3.5 -130.5zM371 563q0 53 5 103.5t22.5 88.5t52 61.5t94.5 23.5q59 0 94 -23.5t53.5 -61.5t23.5 -88.5t5 -103.5t-5 -103 t-23.5 -89t-53.5 -62.5t-94 -23.5t-94 23.5t-52.5 62.5t-22.5 89t-5 103z" />
<glyph unicode="h" horiz-adv-x="1165" d="M150 0h266v651q0 51 15 88t40 58.5t55.5 32t61.5 10.5t62.5 -9.5t56 -32t40 -58t15.5 -89.5v-651h266v690q0 84 -22.5 156t-67.5 124t-111.5 80.5t-154.5 28.5q-72 0 -137.5 -27.5t-118.5 -82.5v489h-266v-1458z" />
<glyph unicode="i" horiz-adv-x="563" d="M145 1249h273v217h-273v-217zM150 0h266v1067h-266v-1067z" />
<glyph unicode="j" horiz-adv-x="563" d="M-47 -174v-225h151q82 0 141.5 26.5t97.5 69.5t55.5 97t17.5 112v1161h-266v-1145q0 -47 -22 -71.5t-73 -24.5h-102zM145 1249h273v217h-273v-217z" />
<glyph unicode="k" horiz-adv-x="1144" d="M150 0h266v317l112 127l263 -444h329l-409 637l381 430h-322l-354 -436v827h-266v-1458z" />
<glyph unicode="l" horiz-adv-x="665" d="M139 305q0 -57 17.5 -111.5t55.5 -97.5t97.5 -69.5t141.5 -26.5h151v225h-102q-51 0 -72.5 24.5t-21.5 72.5v1136h-267v-1153z" />
<glyph unicode="m" horiz-adv-x="1794" d="M150 0h266v645q0 55 16.5 92t42 59.5t57 33t62.5 10.5t62.5 -10.5t57 -33t41 -59.5t15.5 -92v-645h266v651q0 51 16.5 88t42 58.5t57.5 32t62 10.5q31 0 63 -10.5t57.5 -33t41 -59.5t15.5 -92v-645h266v682q0 88 -25.5 163t-91.5 140q-45 45 -113.5 69.5t-148.5 24.5 q-100 0 -176 -31.5t-144 -103.5q-51 70 -121.5 102.5t-160.5 32.5q-74 0 -143.5 -28.5t-122.5 -81.5v98h-260v-1067z" />
<glyph unicode="n" horiz-adv-x="1173" d="M150 0h266v645q0 55 16.5 92t42 59.5t57 33t62.5 10.5t62.5 -10.5t57 -33t41 -59.5t15.5 -92v-645h266v682q0 88 -21.5 163t-86.5 140q-45 45 -108.5 69.5t-143.5 24.5q-74 0 -143.5 -27.5t-122.5 -82.5v98h-260v-1067z" />
<glyph unicode="o" d="M104 535q0 -145 25 -242.5t96 -173.5q49 -53 130 -92t200 -39t201 39t131 92q72 76 96.5 173t24.5 243q0 145 -25 241t-96 172q-49 53 -131 92t-201 39t-200 -39t-130 -92q-72 -76 -96.5 -172t-24.5 -241zM371 535q0 84 10 150.5t51 107.5q47 47 123 47q78 0 125 -47 q41 -41 51 -108t10 -150q0 -84 -10 -152t-51 -109q-47 -47 -125 -47q-76 0 -123 47q-41 41 -51 109t-10 152z" />
<glyph unicode="p" horiz-adv-x="1146" d="M150 -391h266v485q53 -59 114.5 -82.5t143.5 -23.5q78 0 146.5 25.5t113.5 70.5q39 39 61.5 92t32.5 112.5t12 123t2 123.5q0 59 -2 121.5t-12 122t-32.5 111.5t-61.5 93q-45 45 -113.5 70.5t-146.5 25.5q-86 0 -148.5 -25.5t-117.5 -86.5v100h-258v-1458zM416 535 q0 66 6 121t24.5 96t54.5 64.5t95 23.5t95 -23.5t54.5 -64.5t24.5 -96.5t6 -120.5q0 -66 -6 -122.5t-24.5 -97.5t-54.5 -64.5t-95 -23.5t-95 23.5t-54.5 64.5t-24.5 97.5t-6 122.5z" />
<glyph unicode="q" horiz-adv-x="1148" d="M104 535q0 -59 2.5 -123t12.5 -123.5t31.5 -112.5t62.5 -92q45 -45 113.5 -70.5t146.5 -25.5q82 0 144.5 23.5t115.5 82.5v-485h266v1458h-260v-100q-55 61 -116.5 86.5t-147.5 25.5q-78 0 -147.5 -25.5t-114.5 -70.5q-41 -41 -62.5 -93t-31.5 -111.5t-12.5 -122 t-2.5 -121.5zM371 535q0 66 6 121t24.5 96t54.5 64.5t95 23.5t95 -23.5t55.5 -64.5t25.5 -96.5t6 -120.5q0 -66 -6 -122.5t-25.5 -97.5t-55.5 -64.5t-95 -23.5t-95 23.5t-54.5 64.5t-24.5 97.5t-6 122.5z" />
<glyph unicode="r" horiz-adv-x="931" d="M150 0h266v643q0 51 15 88t40 61.5t55.5 36t61.5 11.5q49 0 79.5 -16.5t61.5 -47.5l201 203q-55 55 -114.5 77.5t-137.5 22.5q-86 0 -157.5 -33.5t-110.5 -80.5v102h-260v-1067z" />
<glyph unicode="s" horiz-adv-x="1026" d="M45 141q51 -51 104.5 -80.5t110.5 -46t116.5 -21.5t123.5 -5q94 0 177 21.5t144.5 64.5t96 108.5t34.5 153.5q0 135 -78.5 216t-238.5 97l-168 17q-35 2 -56.5 12t-33.5 22.5t-16.5 27.5t-4.5 30q0 41 36 71.5t116 30.5q70 0 135.5 -15.5t112.5 -56.5l164 166 q-78 72 -180.5 98.5t-227.5 26.5q-82 0 -156.5 -22.5t-131 -65.5t-90.5 -106.5t-34 -145.5q0 -147 83 -215.5t229 -83.5l168 -16q63 -6 87.5 -31.5t24.5 -66.5q0 -31 -16.5 -51.5t-43 -34t-60 -19.5t-68.5 -6q-61 0 -140 17.5t-145 82.5z" />
<glyph unicode="t" horiz-adv-x="720" d="M61 834h113v-529q0 -57 17.5 -111.5t55.5 -97.5t96 -69.5t140 -26.5h146v225h-97q-92 0 -92 97v512h189v202h-189v316h-266v-316h-113v-202z" />
<glyph unicode="u" horiz-adv-x="1173" d="M137 385q0 -88 21.5 -163t87.5 -140q45 -45 108.5 -69.5t143.5 -24.5q74 0 143.5 27.5t122.5 82.5v-98h260v1067h-266v-645q0 -55 -16.5 -92t-42 -59.5t-57.5 -33t-62 -10.5q-31 0 -63 10.5t-57.5 33t-41 59.5t-15.5 92v645h-266v-682z" />
<glyph unicode="v" horiz-adv-x="1009" d="M8 1067l393 -1067h209l391 1067h-280l-215 -659l-217 659h-281z" />
<glyph unicode="w" horiz-adv-x="1554" d="M8 1067l328 -1067h219l223 670l223 -670h220l325 1067h-280l-172 -659l-220 659h-194l-217 -659l-172 659h-283z" />
<glyph unicode="x" horiz-adv-x="1079" d="M25 0h319l195 319l196 -319h320l-369 545l354 522h-319l-182 -305l-181 305h-319l354 -522z" />
<glyph unicode="y" horiz-adv-x="1011" d="M8 1067l365 -991l-45 -131q-20 -59 -48 -78t-85 -19h-62v-239h105q66 0 124 17.5t105 64.5q45 45 80 137l457 1239h-281l-213 -659l-221 659h-281z" />
<glyph unicode="z" horiz-adv-x="978" d="M76 0h813v240h-479l479 624v203h-787v-240h447l-473 -624v-203z" />
<glyph unicode="{" horiz-adv-x="935" d="M88 610h94q37 0 63.5 -11t43.5 -28q35 -35 35 -122v-297q0 -141 86 -228q37 -37 93 -56.5t136 -19.5h209v240h-109q-47 0 -73.5 6t-42.5 23q-16 18 -24.5 48t-8.5 83v276q0 55 -14.5 91t-36 58.5t-46 35t-44.5 20.5q20 8 44.5 20.5t46 35t36 58.5t14.5 91v276q0 53 8 83 t25 48q16 16 42.5 22.5t73.5 6.5h109v240h-209q-80 0 -136.5 -19.5t-92.5 -56.5q-86 -86 -86 -227v-297q0 -88 -35 -123q-16 -16 -43 -27.5t-64 -11.5h-94v-238z" />
<glyph unicode="|" horiz-adv-x="716" d="M225 -152h267v1762h-267v-1762z" />
<glyph unicode="}" horiz-adv-x="935" d="M88 88v-240h209q80 0 136 19.5t93 56.5q86 86 86 228v297q0 88 35 122q16 16 43 27.5t64 11.5h94v238h-94q-37 0 -63.5 11t-43.5 28q-35 35 -35 123v297q0 141 -86 227q-37 37 -93 56.5t-136 19.5h-209v-240h109q47 0 73.5 -6t42.5 -23q16 -18 24.5 -47.5t8.5 -83.5v-276 q0 -55 14.5 -91t36 -58.5t46 -35t44.5 -20.5q-20 -8 -44.5 -20.5t-46 -35t-36 -58t-14.5 -91.5v-276q0 -53 -8 -83t-25 -48q-16 -16 -42.5 -22.5t-73.5 -6.5h-109z" />
<glyph unicode="~" horiz-adv-x="1241" d="M76 600l168 -168q57 57 96 71.5t80 14.5q45 0 84 -13t84 -36q66 -35 121 -52.5t118 -17.5q47 0 88 9.5t81 31t81 55t88 80.5l-170 168q-57 -57 -97 -71.5t-81 -14.5q-45 0 -83 13.5t-83 36.5q-66 35 -121 52t-118 17q-47 0 -87 -9t-80 -30.5t-81 -55.5t-88 -81z" />
<glyph unicode="&#xa1;" horiz-adv-x="710" d="M154 -391h329l-65 1001h-199zM178 795h281v272h-281v-272z" />
<glyph unicode="&#xa2;" horiz-adv-x="1021" d="M96 750q0 -119 29 -211.5t80 -159t120.5 -107.5t149.5 -57v-215h207v215q86 16 152.5 54t126.5 100l-177 172q-31 -33 -60.5 -53.5t-70.5 -30.5v585q41 -10 71 -30.5t60 -53.5l177 172q-59 61 -126 99.5t-153 54.5v174h-207v-174q-80 -16 -149.5 -57t-120.5 -107.5 t-80 -158.5t-29 -211zM362 750q0 86 16.5 141t47.5 94q35 41 78 53v-577q-47 12 -78 53q-31 39 -47.5 94.5t-16.5 141.5z" />
<glyph unicode="&#xa3;" horiz-adv-x="1185" d="M82 608h125v-608h887v254h-605v354h232v205h-232v154q0 127 63.5 188.5t168.5 61.5q72 0 111.5 -24t74.5 -58l187 186q-82 82 -168 115.5t-205 33.5q-102 0 -194.5 -31.5t-164 -93t-113.5 -153.5t-42 -213v-166h-125v-205z" />
<glyph unicode="&#xa4;" horiz-adv-x="1370" d="M119 197l176 -177l151 150q53 -31 112.5 -48.5t125.5 -17.5t126 17.5t114 48.5l151 -150l174 177l-149 149q31 53 48 113.5t17 126.5t-17.5 126t-47.5 113l149 150l-174 176l-151 -150q-53 31 -113.5 48.5t-126.5 17.5t-125 -17.5t-113 -48.5l-151 150l-176 -176 l151 -150q-31 -53 -49 -113.5t-18 -125.5q0 -66 18.5 -126.5t48.5 -113.5zM444 586q0 49 18.5 93t51.5 76.5t77 51t93 18.5t93 -18.5t77 -51t52.5 -76.5t19.5 -93t-19.5 -93t-52.5 -77t-77 -51.5t-93 -18.5t-93 18.5t-77 51.5t-51.5 77t-18.5 93z" />
<glyph unicode="&#xa5;" horiz-adv-x="1169" d="M6 1458l281 -553h-154v-205h258l53 -102v-104h-311v-205h311v-289h283v289h309v205h-309v104l53 102h256v205h-151l278 553h-307l-270 -590l-271 590h-309z" />
<glyph unicode="&#xa6;" horiz-adv-x="722" d="M225 -152h267v717h-267v-717zM225 893h267v717h-267v-717z" />
<glyph unicode="&#xa7;" horiz-adv-x="1087" d="M125 543q0 -82 19.5 -142.5t56.5 -106.5t93 -79t130 -57l127 -43q84 -29 113.5 -70t29.5 -82q0 -59 -39 -95t-110 -36q-70 0 -109 36t-43 93h-256q2 -98 38 -166.5t93.5 -112.5t130 -64.5t146.5 -20.5q76 0 148.5 23.5t130 69.5t92 116.5t34.5 164.5q0 119 -49 184.5 t-117 100.5q29 16 61 45t59.5 68t46 87t18.5 105q0 162 -76 250t-223 135l-127 41q-137 45 -137 135q0 53 35.5 87t107.5 34q59 0 99 -28.5t44 -96.5h250q0 74 -24.5 138.5t-72.5 111.5t-122 74.5t-174 27.5t-174 -29.5t-123 -78.5t-72.5 -112.5t-23.5 -133.5 q0 -113 45 -173t110 -95q-31 -16 -63.5 -45t-60 -68t-45 -87t-17.5 -105zM381 551q0 53 13.5 85t35.5 54q18 18 48 30.5t69 12.5t66.5 -12t48.5 -31q23 -23 37 -54.5t14 -84.5q0 -55 -16.5 -87t-34.5 -50t-47 -30.5t-68 -12.5t-68.5 12t-48.5 31q-18 18 -33.5 50t-15.5 87z " />
<glyph unicode="&#xa8;" horiz-adv-x="1024" d="M172 1241h227v256h-227v-256zM625 1241h227v256h-227v-256z" />
<glyph unicode="&#xa9;" horiz-adv-x="1728" d="M123 729q0 -154 58.5 -289t158.5 -235.5t235.5 -158.5t288.5 -58q154 0 289 58t235.5 158.5t159 235.5t58.5 289t-58.5 289t-159 235.5t-235.5 158.5t-289 58t-289 -58t-235 -158.5t-158.5 -235.5t-58.5 -289zM299 729q0 123 44 228.5t120 182.5t179 121t222 44 t222.5 -44t179 -121t118.5 -182.5t43 -228.5t-43 -228.5t-118.5 -182t-179 -120.5t-222.5 -44t-222 44t-179 120.5t-120 182t-44 228.5zM512 729q0 -98 28.5 -173t78 -126t116 -76.5t144.5 -25.5q86 0 149.5 27.5t120.5 78.5l-115 115q-41 -35 -74.5 -50.5t-80.5 -15.5 q-98 0 -145.5 66.5t-47.5 179.5t47 179.5t146 66.5q47 0 80.5 -15.5t74.5 -50.5l115 115q-59 51 -121.5 80t-148.5 29q-78 0 -144.5 -27t-116 -77t-78 -126t-28.5 -174z" />
<glyph unicode="&#xaa;" horiz-adv-x="929" d="M98 864q0 -117 72 -188q74 -78 215 -78q74 0 119 19.5t88 62.5v-74h211v561q0 150 -91 225.5t-272 75.5q-106 0 -175.5 -24.5t-133.5 -93.5l137 -133q35 39 69 54t93 15q86 0 122 -31.5t36 -101.5v-41h-199q-74 0 -129 -19.5t-91 -53t-53.5 -79t-17.5 -96.5zM307 870 q0 43 29 70t86 27h166v-47q0 -76 -31 -105q-27 -25 -57.5 -32t-75.5 -7q-59 0 -88 25.5t-29 68.5z" />
<glyph unicode="&#xab;" horiz-adv-x="1286" d="M70 563l510 -508v318l-193 190l193 191v317zM639 563l512 -508v318l-197 190l197 191v317z" />
<glyph unicode="&#xac;" d="M94 489h676v-296h248v544h-924v-248z" />
<glyph unicode="&#xad;" d="M102 461h908v248h-908v-248z" />
<glyph unicode="&#xae;" horiz-adv-x="1728" d="M123 729q0 -154 58.5 -289t158.5 -235.5t235.5 -158.5t288.5 -58q154 0 289 58t235.5 158.5t159 235.5t58.5 289t-58.5 289t-159 235.5t-235.5 158.5t-289 58t-289 -58t-235 -158.5t-158.5 -235.5t-58.5 -289zM299 729q0 123 43 228.5t120 182.5t179 121t223 44 q119 0 222.5 -44t180 -121t120 -182.5t43.5 -228.5t-43.5 -228.5t-120 -182t-180 -120.5t-222.5 -44q-121 0 -223 44t-179 120.5t-120 182t-43 228.5zM594 336h176v305h84l143 -305h201l-166 332q57 23 101.5 75t44.5 134q0 49 -18.5 94t-52.5 78.5t-83 54t-109 20.5h-321 v-788zM770 774v205h123q49 0 78.5 -30.5t29.5 -71.5t-29.5 -72t-78.5 -31h-123z" />
<glyph unicode="&#xaf;" horiz-adv-x="1024" d="M188 1290h648v178h-648v-178z" />
<glyph unicode="&#xb0;" horiz-adv-x="978" d="M113 1110q0 -78 29.5 -146.5t80.5 -119.5t120 -81t146 -30q78 0 147 30t120 81t80.5 119.5t29.5 146.5t-29.5 147.5t-80.5 121t-120 81t-147 29.5t-146.5 -29.5t-119.5 -81t-80.5 -121t-29.5 -147.5zM328 1110q0 70 46 117t113 47q68 0 116 -47t48 -117t-47 -117 t-115 -47t-114.5 47t-46.5 117z" />
<glyph unicode="&#xb1;" d="M102 0h908v250h-908v-250zM102 698h330v-329h250v329h328v248h-328v330h-250v-330h-330v-248z" />
<glyph unicode="&#xb2;" horiz-adv-x="733" d="M88 584h557v174h-321l215 233q51 55 78.5 100.5t27.5 112.5q0 123 -79 192.5t-199 69.5q-57 0 -108.5 -17t-89.5 -51t-59.5 -83t-21.5 -113h193q0 53 27.5 71.5t58.5 18.5q41 0 63.5 -23.5t22.5 -64.5q0 -29 -10.5 -49t-34.5 -47l-320 -350v-174z" />
<glyph unicode="&#xb3;" horiz-adv-x="753" d="M88 846q0 -72 24.5 -123t65.5 -84t92.5 -48.5t106.5 -15.5q57 0 109.5 16.5t92 49.5t63.5 84t24 119q0 78 -32 123t-71 69q35 23 63.5 62t28.5 110q0 57 -21.5 104.5t-58 81t-88 53t-110.5 19.5q-57 0 -108.5 -17t-89.5 -51t-59.5 -82t-21.5 -110h193q0 41 25.5 63.5 t60.5 22.5t60.5 -22.5t25.5 -67.5q0 -33 -21.5 -60.5t-68.5 -27.5h-27v-166h27q47 0 73.5 -27.5t26.5 -70.5q0 -49 -26.5 -75.5t-69.5 -26.5q-41 0 -68.5 24.5t-27.5 73.5h-193z" />
<glyph unicode="&#xb4;" horiz-adv-x="1024" d="M399 1237h179l233 348h-281z" />
<glyph unicode="&#xb5;" horiz-adv-x="1179" d="M143 -391h267v407q39 -29 94 -28q74 0 143.5 27.5t122.5 82.5v-98h260v1067h-266v-645q0 -55 -16.5 -92t-42 -59.5t-57.5 -33t-62 -10.5q-31 0 -62.5 10.5t-57.5 33t-41 59.5t-15 92v645h-267v-1458z" />
<glyph unicode="&#xb6;" horiz-adv-x="1368" d="M72 1042q0 -86 31.5 -160.5t86 -130t124 -88t147.5 -32.5v-1022h266v1595h205v-1595h266v1849h-653q-106 0 -193.5 -27.5t-150 -80t-96 -130.5t-33.5 -178z" />
<glyph unicode="&#xb7;" horiz-adv-x="583" d="M139 434h305v303h-305v-303z" />
<glyph unicode="&#x2219;" horiz-adv-x="583" d="M139 434h305v303h-305v-303z" />
<glyph unicode="&#xb8;" horiz-adv-x="1024" d="M328 -422h247l91 299h-197z" />
<glyph unicode="&#xb9;" horiz-adv-x="598" d="M78 1081l184 160v-657h195v874h-195l-184 -160v-217z" />
<glyph unicode="&#xba;" horiz-adv-x="946" d="M113 1032q0 -117 19.5 -192.5t78.5 -137.5q41 -41 104.5 -72.5t157.5 -31.5t157.5 32t104.5 72q59 61 79 137t20 193t-19.5 194t-79.5 138q-41 41 -104.5 72.5t-157.5 31.5t-157.5 -31.5t-104.5 -72.5q-59 -61 -78.5 -138t-19.5 -194zM328 1032q0 66 7 120t40 87 q37 37 98 37t98 -37q33 -33 40 -87t7 -120t-7 -119t-40 -86q-37 -37 -98 -36q-61 0 -98 36q-33 33 -40 86t-7 119z" />
<glyph unicode="&#xbb;" horiz-adv-x="1286" d="M137 55l510 508l-510 508v-317l195 -191l-195 -190v-318zM707 55l512 508l-512 508v-317l192 -191l-192 -190v-318z" />
<glyph unicode="&#xbc;" horiz-adv-x="1712" d="M78 1081l184 160v-657h195v874h-195l-184 -160v-217zM381 0h209l690 1458h-209zM1018 117h360v-117h185v117h67v182h-67v127h-185v-127h-151l295 575h-211l-293 -575v-182z" />
<glyph unicode="&#xbd;" horiz-adv-x="1765" d="M78 1081l184 160v-657h195v874h-195l-184 -160v-217zM373 0h207l690 1458h-207zM1120 0h557v174h-321l215 234q51 55 78.5 100t27.5 113q0 123 -78.5 192.5t-199.5 69.5q-57 0 -108.5 -17.5t-89.5 -51.5t-59.5 -83t-21.5 -113h195q0 53 26.5 72t57.5 19q41 0 64.5 -23.5 t23.5 -64.5q0 -29 -11.5 -49.5t-35.5 -47.5l-320 -350v-174z" />
<glyph unicode="&#xbe;" horiz-adv-x="1771" d="M88 846q0 -72 24.5 -123t65.5 -84t92.5 -48.5t106.5 -15.5q57 0 109.5 16.5t92 49.5t63.5 84t24 119q0 78 -32 123t-71 69q35 23 63.5 62t28.5 110q0 57 -21.5 104.5t-58 81t-88 53t-110.5 19.5q-57 0 -108.5 -17t-89.5 -51t-59.5 -82t-21.5 -110h193q0 41 25.5 63.5 t60.5 22.5t60.5 -22.5t25.5 -67.5q0 -33 -21.5 -60.5t-68.5 -27.5h-27v-166h27q47 0 73.5 -27.5t26.5 -70.5q0 -49 -26.5 -75.5t-69.5 -26.5q-41 0 -68.5 24.5t-27.5 73.5h-193zM446 0h209l691 1458h-209zM1077 117h361v-117h184v117h68v182h-68v127h-184v-127h-152l295 575 h-211l-293 -575v-182z" />
<glyph unicode="&#xbf;" horiz-adv-x="1071" d="M74 6q0 -98 34.5 -174t93 -128t137.5 -79.5t165 -27.5q88 0 167 28.5t138 81.5t93 129t34 172h-266q0 -72 -42 -122t-124 -50q-78 0 -121 48t-43 120q0 35 17.5 70t41.5 67l152 195q41 53 59.5 100t18.5 113v61h-267v-41q0 -27 -10 -55.5t-26 -48.5l-152 -203 q-43 -57 -71.5 -117.5t-28.5 -138.5zM354 795h283v272h-283v-272z" />
<glyph unicode="&#xc0;" horiz-adv-x="1306" d="M10 0h297l88 258h518l86 -258h297l-532 1458h-223zM475 498l184 530l179 -530h-363zM350 1947l233 -348h179l-131 348h-281z" />
<glyph unicode="&#xc1;" horiz-adv-x="1306" d="M10 0h297l88 258h518l86 -258h297l-532 1458h-223zM475 498l184 530l179 -530h-363zM536 1599h179l233 348h-281z" />
<glyph unicode="&#xc2;" horiz-adv-x="1306" d="M10 0h297l88 258h518l86 -258h297l-532 1458h-223zM475 498l184 530l179 -530h-363zM272 1599h207l170 186l170 -186h207l-271 346h-212z" />
<glyph unicode="&#xc3;" horiz-adv-x="1306" d="M10 0h297l88 258h518l86 -258h297l-532 1458h-223zM475 498l184 530l179 -530h-363zM278 1763l115 -117q41 41 67.5 50t53.5 9q31 0 58.5 -10t56.5 -26q43 -25 77.5 -36t79.5 -11q59 0 111.5 26.5t120.5 93.5l-119 117q-41 -41 -67.5 -50t-53.5 -9q-31 0 -56.5 9 t-56.5 28q-43 27 -76.5 37t-80.5 10q-59 0 -110.5 -26.5t-119.5 -94.5z" />
<glyph unicode="&#xc4;" horiz-adv-x="1306" d="M10 0h297l88 258h518l86 -258h297l-532 1458h-223zM475 498l184 530l179 -530h-363zM309 1603h227v256h-227v-256zM762 1603h227v256h-227v-256z" />
<glyph unicode="&#xc5;" horiz-adv-x="1306" d="M10 0h297l88 258h518l86 -258h297l-532 1458h-223zM475 498l184 530l179 -530h-363zM381 1810q0 -55 21.5 -104t57 -85t85 -57.5t104.5 -21.5t104.5 21.5t85 57.5t57 85t21.5 104t-21.5 104.5t-57 86.5t-85 57.5t-104.5 20.5t-104.5 -21.5t-85 -57.5t-57 -85.5 t-21.5 -104.5zM530 1810q0 49 35 84t84 35t84 -35t35 -84t-35 -85t-84 -36t-84 36t-35 85z" />
<glyph unicode="&#xc6;" horiz-adv-x="2004" d="M6 0h305l166 319h461v-319h958v254h-675v352h577v254h-577v344h675v254h-1128zM600 559l338 645v-645h-338z" />
<glyph unicode="&#xc7;" horiz-adv-x="1269" d="M121 729q0 -94 2 -176t14.5 -153.5t42 -134t84.5 -118.5q78 -78 175.5 -118.5t217.5 -40.5q100 0 190.5 28.5t161 87t119 144.5t66.5 201h-289q-23 -88 -80 -147.5t-166 -59.5q-59 0 -105 20.5t-77 54.5q-20 23 -34.5 50.5t-22.5 72.5t-11 115t-3 174t3 174t11 115 t22.5 72.5t34.5 50.5q31 35 77 55.5t105 20.5q109 0 166.5 -59.5t79.5 -147.5h289q-18 115 -66.5 200.5t-119 144t-159.5 87t-192 28.5q-121 0 -218 -40.5t-175 -118.5q-55 -55 -84.5 -118t-42 -134.5t-14.5 -153.5t-2 -176zM439 -422h247l91 299h-197z" />
<glyph unicode="&#xc8;" horiz-adv-x="1239" d="M170 0h960v254h-675v354h575v254h-575v342h675v254h-960v-1458zM336 1947l233 -348h179l-131 348h-281z" />
<glyph unicode="&#xc9;" horiz-adv-x="1239" d="M170 0h960v254h-675v354h575v254h-575v342h675v254h-960v-1458zM520 1599h179l233 348h-281z" />
<glyph unicode="&#xca;" horiz-adv-x="1239" d="M170 0h960v254h-675v354h575v254h-575v342h675v254h-960v-1458zM258 1599h207l170 186l170 -186h207l-271 346h-212z" />
<glyph unicode="&#xcb;" horiz-adv-x="1239" d="M170 0h960v254h-675v354h575v254h-575v342h675v254h-960v-1458zM295 1603h227v256h-227v-256zM748 1603h227v256h-227v-256z" />
<glyph unicode="&#xcc;" horiz-adv-x="624" d="M170 0h285v1458h-285v-1458zM172 1947l233 -348h179l-131 348h-281z" />
<glyph unicode="&#xcd;" horiz-adv-x="624" d="M170 0h285v1458h-285v-1458zM172 1599h179l233 348h-281z" />
<glyph unicode="&#xce;" horiz-adv-x="624" d="M170 0h285v1458h-285v-1458zM170 1599h207l170 186l170 -186h207l-271 346h-212z" />
<glyph unicode="&#xcf;" horiz-adv-x="624" d="M170 0h285v1458h-285v-1458zM172 1603h227v256h-227v-256zM625 1603h227v256h-227v-256z" />
<glyph unicode="&#xd0;" horiz-adv-x="1396" d="M76 629h141v-629h522q129 0 232.5 45t175.5 125q51 55 77.5 112.5t38 123t12.5 144.5t1 179q0 98 -1 175t-12.5 142.5t-38 123t-77.5 116.5q-76 86 -178.5 129t-225.5 43h-526v-612h-141v-217zM502 252v377h237v217h-237v360h215q80 0 133 -26.5t90 -79.5 q16 -23 26.5 -48.5t15.5 -66.5t7 -102.5t2 -157.5q0 -98 -2 -158.5t-6 -99.5t-14.5 -61.5t-24.5 -45.5q-35 -51 -90 -79.5t-137 -28.5h-215z" />
<glyph unicode="&#xd1;" horiz-adv-x="1456" d="M170 0h285v895l577 -895h254v1458h-285v-893l-577 893h-254v-1458zM358 1763l115 -117q41 41 67.5 50t53.5 9q31 0 58.5 -10t56.5 -26q43 -25 77.5 -36t79.5 -11q59 0 111.5 26.5t120.5 93.5l-119 117q-41 -41 -67.5 -50t-53.5 -9q-31 0 -56.5 9t-56.5 28 q-43 27 -76.5 37t-80.5 10q-59 0 -110.5 -26.5t-119.5 -94.5z" />
<glyph unicode="&#xd2;" horiz-adv-x="1318" d="M121 729q0 -94 2 -176t14.5 -153.5t42 -134t84.5 -118.5q78 -78 174.5 -118.5t220.5 -40.5q125 0 220.5 41t173.5 118q55 55 84.5 118t43 134.5t15.5 153.5t2 176t-2 176t-15.5 153.5t-43 134t-84.5 118.5q-78 78 -173.5 118.5t-220.5 40.5t-221 -40.5t-174 -118.5 q-55 -55 -84.5 -118t-42 -134.5t-14.5 -153.5t-2 -176zM406 729q0 104 3 173t11 114t21.5 72.5t33.5 50.5q31 35 78 56.5t106 21.5t105.5 -21.5t77.5 -56.5q20 -23 34.5 -50.5t22.5 -72.5t11 -113.5t3 -173.5q0 -104 -3 -173t-11 -114t-22.5 -72.5t-34.5 -50.5 q-31 -35 -77 -56t-106 -21q-59 0 -106 21.5t-78 55.5q-20 23 -33.5 50.5t-21.5 72.5t-11 114t-3 173zM360 1947l233 -348h179l-131 348h-281z" />
<glyph unicode="&#xd3;" horiz-adv-x="1318" d="M121 729q0 -94 2 -176t14.5 -153.5t42 -134t84.5 -118.5q78 -78 174.5 -118.5t220.5 -40.5q125 0 220.5 41t173.5 118q55 55 84.5 118t43 134.5t15.5 153.5t2 176t-2 176t-15.5 153.5t-43 134t-84.5 118.5q-78 78 -173.5 118.5t-220.5 40.5t-221 -40.5t-174 -118.5 q-55 -55 -84.5 -118t-42 -134.5t-14.5 -153.5t-2 -176zM406 729q0 104 3 173t11 114t21.5 72.5t33.5 50.5q31 35 78 56.5t106 21.5t105.5 -21.5t77.5 -56.5q20 -23 34.5 -50.5t22.5 -72.5t11 -113.5t3 -173.5q0 -104 -3 -173t-11 -114t-22.5 -72.5t-34.5 -50.5 q-31 -35 -77 -56t-106 -21q-59 0 -106 21.5t-78 55.5q-20 23 -33.5 50.5t-21.5 72.5t-11 114t-3 173zM546 1599h179l233 348h-281z" />
<glyph unicode="&#xd4;" horiz-adv-x="1318" d="M121 729q0 -94 2 -176t14.5 -153.5t42 -134t84.5 -118.5q78 -78 174.5 -118.5t220.5 -40.5q125 0 220.5 41t173.5 118q55 55 84.5 118t43 134.5t15.5 153.5t2 176t-2 176t-15.5 153.5t-43 134t-84.5 118.5q-78 78 -173.5 118.5t-220.5 40.5t-221 -40.5t-174 -118.5 q-55 -55 -84.5 -118t-42 -134.5t-14.5 -153.5t-2 -176zM406 729q0 104 3 173t11 114t21.5 72.5t33.5 50.5q31 35 78 56.5t106 21.5t105.5 -21.5t77.5 -56.5q20 -23 34.5 -50.5t22.5 -72.5t11 -113.5t3 -173.5q0 -104 -3 -173t-11 -114t-22.5 -72.5t-34.5 -50.5 q-31 -35 -77 -56t-106 -21q-59 0 -106 21.5t-78 55.5q-20 23 -33.5 50.5t-21.5 72.5t-11 114t-3 173zM282 1599h207l170 186l170 -186h207l-271 346h-212z" />
<glyph unicode="&#xd5;" horiz-adv-x="1318" d="M121 729q0 -94 2 -176t14.5 -153.5t42 -134t84.5 -118.5q78 -78 174.5 -118.5t220.5 -40.5q125 0 220.5 41t173.5 118q55 55 84.5 118t43 134.5t15.5 153.5t2 176t-2 176t-15.5 153.5t-43 134t-84.5 118.5q-78 78 -173.5 118.5t-220.5 40.5t-221 -40.5t-174 -118.5 q-55 -55 -84.5 -118t-42 -134.5t-14.5 -153.5t-2 -176zM406 729q0 104 3 173t11 114t21.5 72.5t33.5 50.5q31 35 78 56.5t106 21.5t105.5 -21.5t77.5 -56.5q20 -23 34.5 -50.5t22.5 -72.5t11 -113.5t3 -173.5q0 -104 -3 -173t-11 -114t-22.5 -72.5t-34.5 -50.5 q-31 -35 -77 -56t-106 -21q-59 0 -106 21.5t-78 55.5q-20 23 -33.5 50.5t-21.5 72.5t-11 114t-3 173zM288 1763l115 -117q41 41 67.5 50t53.5 9q31 0 58.5 -10t56.5 -26q43 -25 77.5 -36t79.5 -11q59 0 111.5 26.5t120.5 93.5l-119 117q-41 -41 -67.5 -50t-53.5 -9 q-31 0 -56.5 9t-56.5 28q-43 27 -76.5 37t-80.5 10q-59 0 -110.5 -26.5t-119.5 -94.5z" />
<glyph unicode="&#xd6;" horiz-adv-x="1318" d="M121 729q0 -94 2 -176t14.5 -153.5t42 -134t84.5 -118.5q78 -78 174.5 -118.5t220.5 -40.5q125 0 220.5 41t173.5 118q55 55 84.5 118t43 134.5t15.5 153.5t2 176t-2 176t-15.5 153.5t-43 134t-84.5 118.5q-78 78 -173.5 118.5t-220.5 40.5t-221 -40.5t-174 -118.5 q-55 -55 -84.5 -118t-42 -134.5t-14.5 -153.5t-2 -176zM406 729q0 104 3 173t11 114t21.5 72.5t33.5 50.5q31 35 78 56.5t106 21.5t105.5 -21.5t77.5 -56.5q20 -23 34.5 -50.5t22.5 -72.5t11 -113.5t3 -173.5q0 -104 -3 -173t-11 -114t-22.5 -72.5t-34.5 -50.5 q-31 -35 -77 -56t-106 -21q-59 0 -106 21.5t-78 55.5q-20 23 -33.5 50.5t-21.5 72.5t-11 114t-3 173zM319 1603h227v256h-227v-256zM772 1603h227v256h-227v-256z" />
<glyph unicode="&#xd7;" d="M100 297l168 -168l287 289l289 -289l168 168l-289 289l289 288l-168 168l-289 -288l-287 288l-168 -168l289 -288z" />
<glyph unicode="&#xd8;" horiz-adv-x="1335" d="M121 729q0 -94 2 -176t14.5 -153.5t42 -134t84.5 -118.5l10 -10l-108 -227h203l59 123q98 -45 231 -45q125 0 220.5 41t173.5 118q55 55 84.5 118t43 134.5t15.5 153.5t2 176t-2 176t-15.5 153.5t-43 134t-84.5 118.5l-11 10l109 227h-201l-59 -123q-98 45 -232 45 q-125 0 -221 -40.5t-174 -118.5q-55 -55 -84.5 -118t-42 -134.5t-14.5 -153.5t-2 -176zM406 729q0 104 3 173t11 114t21.5 72.5t33.5 50.5q31 35 78 56.5t106 21.5q76 0 129 -33l-364 -764q-10 45 -14 116.5t-4 192.5zM528 276l365 762q10 -45 15 -116.5t5 -192.5 q0 -104 -3 -173t-11 -114t-22.5 -72.5t-34.5 -50.5q-31 -35 -77 -56t-106 -21q-74 -1 -131 34z" />
<glyph unicode="&#xd9;" horiz-adv-x="1368" d="M147 500q0 -117 42 -211t115 -161t170 -103.5t210 -36.5t210 36.5t170 103.5t115 161t42 211v958h-283v-948q0 -127 -68.5 -197.5t-185.5 -70.5t-184.5 70.5t-67.5 197.5v948h-285v-958zM385 1947l233 -348h179l-131 348h-281z" />
<glyph unicode="&#xda;" horiz-adv-x="1368" d="M147 500q0 -117 42 -211t115 -161t170 -103.5t210 -36.5t210 36.5t170 103.5t115 161t42 211v958h-283v-948q0 -127 -68.5 -197.5t-185.5 -70.5t-184.5 70.5t-67.5 197.5v948h-285v-958zM571 1599h179l233 348h-281z" />
<glyph unicode="&#xdb;" horiz-adv-x="1368" d="M147 500q0 -117 42 -211t115 -161t170 -103.5t210 -36.5t210 36.5t170 103.5t115 161t42 211v958h-283v-948q0 -127 -68.5 -197.5t-185.5 -70.5t-184.5 70.5t-67.5 197.5v948h-285v-958zM307 1599h207l170 186l170 -186h207l-271 346h-212z" />
<glyph unicode="&#xdc;" horiz-adv-x="1368" d="M147 500q0 -117 42 -211t115 -161t170 -103.5t210 -36.5t210 36.5t170 103.5t115 161t42 211v958h-283v-948q0 -127 -68.5 -197.5t-185.5 -70.5t-184.5 70.5t-67.5 197.5v948h-285v-958zM344 1603h227v256h-227v-256zM797 1603h227v256h-227v-256z" />
<glyph unicode="&#xdd;" horiz-adv-x="1171" d="M6 1458l438 -860v-598h283v598l438 860h-309l-268 -588l-273 588h-309zM471 1599h179l233 348h-281z" />
<glyph unicode="&#xde;" horiz-adv-x="1296" d="M170 0h285v283h280q113 0 202 35.5t151.5 98t95.5 145.5t33 175t-33 175t-95.5 144.5t-151.5 97.5t-202 36h-280v268h-285v-1458zM455 537v399h266q98 0 154.5 -54.5t56.5 -144.5t-56.5 -145t-154.5 -55h-266z" />
<glyph unicode="&#xdf;" horiz-adv-x="1175" d="M150 0h266v1047q0 92 41 142t149 50q96 0 144 -43q39 -35 38 -92q0 -66 -36.5 -94.5t-85.5 -28.5h-58v-209h58q59 0 92 -33q31 -31 30 -92v-295q0 -66 -34 -96q-35 -31 -92 -31h-54v-225h107q90 0 152.5 21.5t105.5 64.5q84 82 84 244v327q0 96 -35 145.5t-92 78.5 q47 29 86 83t39 148q0 92 -33 159.5t-92.5 111.5t-141 65.5t-178.5 21.5q-98 0 -183 -22.5t-146.5 -71.5t-96 -125.5t-34.5 -183.5v-1067z" />
<glyph unicode="&#xe0;" horiz-adv-x="1093" d="M74 324q0 -72 22.5 -133.5t65.5 -106.5q94 -94 272 -94q92 0 150.5 24.5t111.5 77.5v-92h260v702q0 188 -114.5 282.5t-339.5 94.5q-133 0 -220 -30.5t-165 -116.5l170 -166q20 25 40.5 41t44 26.5t52.5 15.5t68 5q106 0 152 -40t46 -128v-53h-252q-92 0 -160.5 -24.5 t-113.5 -66.5t-67.5 -98.5t-22.5 -119.5zM330 330q0 57 39 89t110 32h211v-58q0 -98 -39 -135q-35 -35 -73.5 -43t-94.5 -8q-78 0 -115.5 34t-37.5 89zM236 1585l233 -348h179l-131 348h-281z" />
<glyph unicode="&#xe1;" horiz-adv-x="1093" d="M74 324q0 -72 22.5 -133.5t65.5 -106.5q94 -94 272 -94q92 0 150.5 24.5t111.5 77.5v-92h260v702q0 188 -114.5 282.5t-339.5 94.5q-133 0 -220 -30.5t-165 -116.5l170 -166q20 25 40.5 41t44 26.5t52.5 15.5t68 5q106 0 152 -40t46 -128v-53h-252q-92 0 -160.5 -24.5 t-113.5 -66.5t-67.5 -98.5t-22.5 -119.5zM330 330q0 57 39 89t110 32h211v-58q0 -98 -39 -135q-35 -35 -73.5 -43t-94.5 -8q-78 0 -115.5 34t-37.5 89zM422 1237h179l233 348h-281z" />
<glyph unicode="&#xe2;" horiz-adv-x="1093" d="M74 324q0 -72 22.5 -133.5t65.5 -106.5q94 -94 272 -94q92 0 150.5 24.5t111.5 77.5v-92h260v702q0 188 -114.5 282.5t-339.5 94.5q-133 0 -220 -30.5t-165 -116.5l170 -166q20 25 40.5 41t44 26.5t52.5 15.5t68 5q106 0 152 -40t46 -128v-53h-252q-92 0 -160.5 -24.5 t-113.5 -66.5t-67.5 -98.5t-22.5 -119.5zM330 330q0 57 39 89t110 32h211v-58q0 -98 -39 -135q-35 -35 -73.5 -43t-94.5 -8q-78 0 -115.5 34t-37.5 89zM158 1237h207l170 186l170 -186h207l-271 346h-212z" />
<glyph unicode="&#xe3;" horiz-adv-x="1093" d="M74 324q0 -72 22.5 -133.5t65.5 -106.5q94 -94 272 -94q92 0 150.5 24.5t111.5 77.5v-92h260v702q0 188 -114.5 282.5t-339.5 94.5q-133 0 -220 -30.5t-165 -116.5l170 -166q20 25 40.5 41t44 26.5t52.5 15.5t68 5q106 0 152 -40t46 -128v-53h-252q-92 0 -160.5 -24.5 t-113.5 -66.5t-67.5 -98.5t-22.5 -119.5zM330 330q0 57 39 89t110 32h211v-58q0 -98 -39 -135q-35 -35 -73.5 -43t-94.5 -8q-78 0 -115.5 34t-37.5 89zM164 1401l115 -117q41 41 67.5 50t53.5 9q31 0 58.5 -10t56.5 -26q43 -25 77.5 -36t79.5 -11q59 0 111.5 26.5 t120.5 93.5l-119 117q-41 -41 -67.5 -50t-53.5 -9q-31 0 -56.5 9t-56.5 28q-43 27 -76.5 37t-80.5 10q-59 0 -110.5 -26.5t-119.5 -94.5z" />
<glyph unicode="&#xe4;" horiz-adv-x="1093" d="M74 324q0 -72 22.5 -133.5t65.5 -106.5q94 -94 272 -94q92 0 150.5 24.5t111.5 77.5v-92h260v702q0 188 -114.5 282.5t-339.5 94.5q-133 0 -220 -30.5t-165 -116.5l170 -166q20 25 40.5 41t44 26.5t52.5 15.5t68 5q106 0 152 -40t46 -128v-53h-252q-92 0 -160.5 -24.5 t-113.5 -66.5t-67.5 -98.5t-22.5 -119.5zM330 330q0 57 39 89t110 32h211v-58q0 -98 -39 -135q-35 -35 -73.5 -43t-94.5 -8q-78 0 -115.5 34t-37.5 89zM195 1241h227v256h-227v-256zM648 1241h227v256h-227v-256z" />
<glyph unicode="&#xe5;" horiz-adv-x="1093" d="M74 324q0 -72 22.5 -133.5t65.5 -106.5q94 -94 272 -94q92 0 150.5 24.5t111.5 77.5v-92h260v702q0 188 -114.5 282.5t-339.5 94.5q-133 0 -220 -30.5t-165 -116.5l170 -166q20 25 40.5 41t44 26.5t52.5 15.5t68 5q106 0 152 -40t46 -128v-53h-252q-92 0 -160.5 -24.5 t-113.5 -66.5t-67.5 -98.5t-22.5 -119.5zM330 330q0 57 39 89t110 32h211v-58q0 -98 -39 -135q-35 -35 -73.5 -43t-94.5 -8q-78 0 -115.5 34t-37.5 89zM267 1464q0 -55 21.5 -104t57 -85t85 -57.5t104.5 -21.5t104.5 21.5t85 57.5t57 85t21.5 104t-21.5 104.5t-57 86.5 t-85 57.5t-104.5 20.5t-104.5 -21.5t-85 -57.5t-57 -85.5t-21.5 -104.5zM416 1464q0 49 35 84t84 35t84 -35t35 -84t-35 -85t-84 -36t-84 36t-35 85z" />
<glyph unicode="&#xe6;" horiz-adv-x="1716" d="M74 324q0 -72 22.5 -133.5t65.5 -106.5q96 -96 272 -96q55 0 104.5 5t95.5 21.5t89 46t86 76.5q72 -82 169 -115.5t206 -33.5q72 0 129 11t105 32.5t89 52.5t82 72l-162 157q-51 -51 -102 -75.5t-139 -24.5q-113 0 -173.5 66.5t-60.5 171.5h668v118q0 111 -30.5 204 t-90 160.5t-146.5 106.5t-198 39q-92 0 -169 -28.5t-134 -87.5q-109 117 -350 116q-133 0 -220 -30.5t-165 -116.5l170 -166q20 25 40.5 41t44 26.5t52.5 15.5t68 5q106 0 152 -40t46 -128v-53h-252q-92 0 -160.5 -24.5t-113.5 -66.5t-67.5 -98.5t-22.5 -119.5zM330 330 q0 57 39 89t110 32h211v-58q0 -98 -39 -135q-35 -35 -73.5 -43t-94.5 -8q-78 0 -115.5 34t-37.5 89zM952 633q2 35 7.5 60.5t17.5 54.5q23 47 66.5 78.5t111.5 31.5t112 -31.5t66 -78.5q12 -29 17.5 -54.5t7.5 -60.5h-406z" />
<glyph unicode="&#xe7;" horiz-adv-x="987" d="M96 535q0 -162 45 -267.5t114 -168t154 -87t164 -24.5q111 0 196 35.5t157 109.5l-181 178q-41 -45 -79.5 -64.5t-92.5 -19.5q-94 0 -151 70q-59 74 -60 238q0 86 14.5 141t45.5 94q57 70 151 70q53 0 92.5 -19.5t79.5 -64.5l181 180q-72 74 -157 108.5t-196 34.5 q-80 0 -164.5 -24.5t-153.5 -86t-114 -166.5t-45 -267zM328 -422h247l91 299h-197z" />
<glyph unicode="&#xe8;" horiz-adv-x="1122" d="M96 535q0 -162 42 -267.5t110.5 -168t158 -87t183.5 -24.5q72 0 129 11t105 32.5t89 52.5t82 72l-161 157q-51 -51 -102.5 -75.5t-139.5 -24.5q-113 0 -173.5 66.5t-60.5 171.5h668v118q0 111 -30.5 204t-90 160.5t-146.5 106.5t-198 39q-104 0 -189 -35.5t-146.5 -105.5 t-95.5 -171t-34 -232zM358 633q2 35 7.5 60.5t17.5 54.5q23 47 67 78.5t111 31.5q68 0 112 -31.5t66 -78.5q12 -29 17.5 -54.5t7.5 -60.5h-406zM268 1585l233 -348h179l-131 348h-281z" />
<glyph unicode="&#xe9;" horiz-adv-x="1122" d="M96 535q0 -162 42 -267.5t110.5 -168t158 -87t183.5 -24.5q72 0 129 11t105 32.5t89 52.5t82 72l-161 157q-51 -51 -102.5 -75.5t-139.5 -24.5q-113 0 -173.5 66.5t-60.5 171.5h668v118q0 111 -30.5 204t-90 160.5t-146.5 106.5t-198 39q-104 0 -189 -35.5t-146.5 -105.5 t-95.5 -171t-34 -232zM358 633q2 35 7.5 60.5t17.5 54.5q23 47 67 78.5t111 31.5q68 0 112 -31.5t66 -78.5q12 -29 17.5 -54.5t7.5 -60.5h-406zM454 1237h179l233 348h-281z" />
<glyph unicode="&#xea;" horiz-adv-x="1122" d="M96 535q0 -162 42 -267.5t110.5 -168t158 -87t183.5 -24.5q72 0 129 11t105 32.5t89 52.5t82 72l-161 157q-51 -51 -102.5 -75.5t-139.5 -24.5q-113 0 -173.5 66.5t-60.5 171.5h668v118q0 111 -30.5 204t-90 160.5t-146.5 106.5t-198 39q-104 0 -189 -35.5t-146.5 -105.5 t-95.5 -171t-34 -232zM358 633q2 35 7.5 60.5t17.5 54.5q23 47 67 78.5t111 31.5q68 0 112 -31.5t66 -78.5q12 -29 17.5 -54.5t7.5 -60.5h-406zM190 1237h207l170 186l170 -186h207l-271 346h-212z" />
<glyph unicode="&#xeb;" horiz-adv-x="1122" d="M96 535q0 -162 42 -267.5t110.5 -168t158 -87t183.5 -24.5q72 0 129 11t105 32.5t89 52.5t82 72l-161 157q-51 -51 -102.5 -75.5t-139.5 -24.5q-113 0 -173.5 66.5t-60.5 171.5h668v118q0 111 -30.5 204t-90 160.5t-146.5 106.5t-198 39q-104 0 -189 -35.5t-146.5 -105.5 t-95.5 -171t-34 -232zM358 633q2 35 7.5 60.5t17.5 54.5q23 47 67 78.5t111 31.5q68 0 112 -31.5t66 -78.5q12 -29 17.5 -54.5t7.5 -60.5h-406zM227 1241h227v256h-227v-256zM680 1241h227v256h-227v-256z" />
<glyph unicode="&#xec;" horiz-adv-x="563" d="M150 0h266v1067h-266v-1067zM152 1585l233 -348h179l-131 348h-281z" />
<glyph unicode="&#xed;" horiz-adv-x="563" d="M150 0h266v1067h-266v-1067zM151 1237h179l233 348h-281z" />
<glyph unicode="&#xee;" horiz-adv-x="563" d="M150 0h266v1067h-266v-1067zM149 1237h207l170 186l170 -186h207l-271 346h-212z" />
<glyph unicode="&#xef;" horiz-adv-x="563" d="M150 0h266v1067h-266v-1067zM152 1241h227v256h-227v-256zM605 1241h227v256h-227v-256z" />
<glyph unicode="&#xf0;" d="M115 520q0 -141 23.5 -236.5t94.5 -168.5q49 -51 127 -89t195 -38t194.5 37.5t127.5 89.5q72 74 95 169t23 236q0 76 -6 134.5t-20.5 112.5t-39 110.5t-61.5 130.5l-82 157h95v187h-189l-63 123h-285l64 -123h-140v-187h234l69 -127q-41 4 -79.5 0t-75.5 -14 q-117 -31 -183 -100q-72 -74 -95 -168.5t-23 -235.5zM381 520q0 78 9 141.5t48 104.5q45 45 117 45q74 0 119 -45q39 -41 47 -104.5t8 -141.5t-8 -142.5t-47 -105.5q-45 -45 -119 -45q-72 0 -117 45q-39 41 -48 105.5t-9 142.5z" />
<glyph unicode="&#xf1;" horiz-adv-x="1173" d="M150 0h266v645q0 55 16.5 92t42 59.5t57 33t62.5 10.5t62.5 -10.5t57 -33t41 -59.5t15.5 -92v-645h266v682q0 88 -21.5 163t-86.5 140q-45 45 -108.5 69.5t-143.5 24.5q-74 0 -143.5 -27.5t-122.5 -82.5v98h-260v-1067zM223 1401l115 -117q41 41 67.5 50t53.5 9 q31 0 58.5 -10t56.5 -26q43 -25 77.5 -36t79.5 -11q59 0 111.5 26.5t120.5 93.5l-119 117q-41 -41 -67.5 -50t-53.5 -9q-31 0 -56.5 9t-56.5 28q-43 27 -76.5 37t-80.5 10q-59 0 -110.5 -26.5t-119.5 -94.5z" />
<glyph unicode="&#xf2;" d="M104 535q0 -145 25 -242.5t96 -173.5q49 -53 130 -92t200 -39t201 39t131 92q72 76 96.5 173t24.5 243q0 145 -25 241t-96 172q-49 53 -131 92t-201 39t-200 -39t-130 -92q-72 -76 -96.5 -172t-24.5 -241zM371 535q0 84 10 150.5t51 107.5q47 47 123 47q78 0 125 -47 q41 -41 51 -108t10 -150q0 -84 -10 -152t-51 -109q-47 -47 -125 -47q-76 0 -123 47q-41 41 -51 109t-10 152zM250 1585l233 -348h179l-131 348h-281z" />
<glyph unicode="&#xf3;" d="M104 535q0 -145 25 -242.5t96 -173.5q49 -53 130 -92t200 -39t201 39t131 92q72 76 96.5 173t24.5 243q0 145 -25 241t-96 172q-49 53 -131 92t-201 39t-200 -39t-130 -92q-72 -76 -96.5 -172t-24.5 -241zM371 535q0 84 10 150.5t51 107.5q47 47 123 47q78 0 125 -47 q41 -41 51 -108t10 -150q0 -84 -10 -152t-51 -109q-47 -47 -125 -47q-76 0 -123 47q-41 41 -51 109t-10 152zM444 1237h179l233 348h-281z" />
<glyph unicode="&#xf4;" d="M104 535q0 -145 25 -242.5t96 -173.5q49 -53 130 -92t200 -39t201 39t131 92q72 76 96.5 173t24.5 243q0 145 -25 241t-96 172q-49 53 -131 92t-201 39t-200 -39t-130 -92q-72 -76 -96.5 -172t-24.5 -241zM371 535q0 84 10 150.5t51 107.5q47 47 123 47q78 0 125 -47 q41 -41 51 -108t10 -150q0 -84 -10 -152t-51 -109q-47 -47 -125 -47q-76 0 -123 47q-41 41 -51 109t-10 152zM180 1237h207l170 186l170 -186h207l-271 346h-212z" />
<glyph unicode="&#xf5;" d="M104 535q0 -145 25 -242.5t96 -173.5q49 -53 130 -92t200 -39t201 39t131 92q72 76 96.5 173t24.5 243q0 145 -25 241t-96 172q-49 53 -131 92t-201 39t-200 -39t-130 -92q-72 -76 -96.5 -172t-24.5 -241zM371 535q0 84 10 150.5t51 107.5q47 47 123 47q78 0 125 -47 q41 -41 51 -108t10 -150q0 -84 -10 -152t-51 -109q-47 -47 -125 -47q-76 0 -123 47q-41 41 -51 109t-10 152zM186 1401l115 -117q41 41 67.5 50t53.5 9q31 0 58.5 -10t56.5 -26q43 -25 77.5 -36t79.5 -11q59 0 111.5 26.5t120.5 93.5l-119 117q-41 -41 -67.5 -50t-53.5 -9 q-31 0 -56.5 9t-56.5 28q-43 27 -76.5 37t-80.5 10q-59 0 -110.5 -26.5t-119.5 -94.5z" />
<glyph unicode="&#xf6;" d="M104 535q0 -145 25 -242.5t96 -173.5q49 -53 130 -92t200 -39t201 39t131 92q72 76 96.5 173t24.5 243q0 145 -25 241t-96 172q-49 53 -131 92t-201 39t-200 -39t-130 -92q-72 -76 -96.5 -172t-24.5 -241zM371 535q0 84 10 150.5t51 107.5q47 47 123 47q78 0 125 -47 q41 -41 51 -108t10 -150q0 -84 -10 -152t-51 -109q-47 -47 -125 -47q-76 0 -123 47q-41 41 -51 109t-10 152zM217 1241h227v256h-227v-256zM670 1241h227v256h-227v-256z" />
<glyph unicode="&#xf7;" d="M94 461h924v248h-924v-248zM424 37h266v266h-266v-266zM424 866h266v267h-266v-267z" />
<glyph unicode="&#xf8;" d="M104 535q0 -145 24 -243.5t97 -172.5l2 -2l-121 -207h162l74 125q43 -23 95 -35t118 -12q119 0 201 39t131 92q72 76 96.5 173t24.5 243q0 145 -25 241t-96 172l-4 2l123 207h-164l-72 -123q-90 45 -215 45q-119 0 -200 -39t-130 -92q-72 -76 -96.5 -172t-24.5 -241z M371 535q0 84 10 150.5t51 107.5q47 47 123 47q57 0 100 -27l-270 -455q-10 37 -12 82.5t-2 94.5zM457 254l268 455q10 -37 13 -81t3 -93q0 -84 -10 -152t-51 -109q-47 -47 -125 -47q-55 0 -98 27z" />
<glyph unicode="&#xf9;" horiz-adv-x="1173" d="M137 385q0 -88 21.5 -163t87.5 -140q45 -45 108.5 -69.5t143.5 -24.5q74 0 143.5 27.5t122.5 82.5v-98h260v1067h-266v-645q0 -55 -16.5 -92t-42 -59.5t-57.5 -33t-62 -10.5q-31 0 -63 10.5t-57.5 33t-41 59.5t-15.5 92v645h-266v-682zM281 1585l233 -348h179l-131 348 h-281z" />
<glyph unicode="&#xfa;" horiz-adv-x="1173" d="M137 385q0 -88 21.5 -163t87.5 -140q45 -45 108.5 -69.5t143.5 -24.5q74 0 143.5 27.5t122.5 82.5v-98h260v1067h-266v-645q0 -55 -16.5 -92t-42 -59.5t-57.5 -33t-62 -10.5q-31 0 -63 10.5t-57.5 33t-41 59.5t-15.5 92v645h-266v-682zM467 1237h179l233 348h-281z" />
<glyph unicode="&#xfb;" horiz-adv-x="1173" d="M137 385q0 -88 21.5 -163t87.5 -140q45 -45 108.5 -69.5t143.5 -24.5q74 0 143.5 27.5t122.5 82.5v-98h260v1067h-266v-645q0 -55 -16.5 -92t-42 -59.5t-57.5 -33t-62 -10.5q-31 0 -63 10.5t-57.5 33t-41 59.5t-15.5 92v645h-266v-682zM203 1237h207l170 186l170 -186 h207l-271 346h-212z" />
<glyph unicode="&#xfc;" horiz-adv-x="1173" d="M137 385q0 -88 21.5 -163t87.5 -140q45 -45 108.5 -69.5t143.5 -24.5q74 0 143.5 27.5t122.5 82.5v-98h260v1067h-266v-645q0 -55 -16.5 -92t-42 -59.5t-57.5 -33t-62 -10.5q-31 0 -63 10.5t-57.5 33t-41 59.5t-15.5 92v645h-266v-682zM240 1241h227v256h-227v-256z M693 1241h227v256h-227v-256z" />
<glyph unicode="&#xfd;" horiz-adv-x="1011" d="M8 1067l365 -991l-45 -131q-20 -59 -48 -78t-85 -19h-62v-239h105q66 0 124 17.5t105 64.5q45 45 80 137l457 1239h-281l-213 -659l-221 659h-281zM389 1237h179l233 348h-281z" />
<glyph unicode="&#xfe;" horiz-adv-x="1150" d="M150 -391h266v485q53 -59 114.5 -82.5t143.5 -23.5q78 0 146.5 25.5t113.5 70.5q39 39 61.5 92t32.5 112.5t12 123t2 123.5q0 59 -2 121.5t-12 122t-32.5 111.5t-61.5 93q-45 45 -113.5 70.5t-146.5 25.5q-82 0 -143.5 -23.5t-114.5 -82.5v485h-266v-1849zM416 535 q0 66 6 121t24.5 96t54.5 64.5t95 23.5t95 -23.5t54.5 -64.5t24.5 -96.5t6 -120.5q0 -66 -6 -122.5t-24.5 -97.5t-54.5 -64.5t-95 -23.5t-95 23.5t-54.5 64.5t-24.5 97.5t-6 122.5z" />
<glyph unicode="&#xff;" horiz-adv-x="1011" d="M8 1067l365 -991l-45 -131q-20 -59 -48 -78t-85 -19h-62v-239h105q66 0 124 17.5t105 64.5q45 45 80 137l457 1239h-281l-213 -659l-221 659h-281zM162 1241h227v256h-227v-256zM615 1241h227v256h-227v-256z" />
<glyph unicode="&#x152;" horiz-adv-x="1978" d="M121 729q0 -94 2 -177t15.5 -156.5t42 -136t83.5 -118.5q78 -78 170 -115.5t217 -37.5q66 0 137.5 23.5t124.5 78.5v-90h955v252h-672v72q0 51 1 107t1 106v73h569v250h-569v70q0 49 -1 103t-1 102v71h670v252h-953v-90q-53 55 -123.5 78.5t-138.5 23.5 q-125 0 -217 -37.5t-170 -115.5q-55 -55 -83.5 -117.5t-42 -136.5t-15.5 -157t-2 -177zM406 729q0 104 3 173t11 114t21.5 72.5t33.5 50.5q31 35 78 56.5t106 21.5t105.5 -21.5t77.5 -56.5q20 -23 34.5 -50.5t22.5 -72.5t11 -113.5t3 -173.5q0 -104 -3 -173t-11 -114 t-22.5 -72.5t-34.5 -50.5q-31 -35 -77 -56t-106 -21q-59 0 -106 21.5t-78 55.5q-20 23 -33.5 50.5t-21.5 72.5t-11 114t-3 173z" />
<glyph unicode="&#x153;" horiz-adv-x="1767" d="M104 535q0 -145 25 -242.5t96 -173.5q49 -53 130 -92t200 -39q111 0 192.5 37.5t131.5 97.5q66 -74 158.5 -104.5t197.5 -30.5q72 0 129 11t105.5 32.5t89 52.5t81.5 72l-163 157q-51 -51 -101.5 -75.5t-138.5 -24.5q-113 0 -173 66.5t-60 171.5h667v118q0 111 -30.5 204 t-90 160.5t-146.5 106.5t-198 39q-205 0 -321 -141q-49 61 -132 101t-198 40q-119 0 -200 -39t-130 -92q-72 -76 -96.5 -172t-24.5 -241zM371 535q0 84 10 150.5t51 107.5q47 47 123 47q78 0 125 -47q41 -41 51 -108t10 -150q0 -84 -10 -152t-51 -109q-47 -47 -125 -47 q-76 0 -123 47q-41 41 -51 109t-10 152zM1004 633q2 35 6 60.5t16 54.5q23 47 68 78.5t112 31.5q68 0 112 -31.5t66 -78.5q12 -29 16.5 -54.5t6.5 -60.5h-403z" />
<glyph unicode="&#x178;" horiz-adv-x="1171" d="M6 1458l438 -860v-598h283v598l438 860h-309l-268 -588l-273 588h-309zM244 1603h227v256h-227v-256zM697 1603h227v256h-227v-256z" />
<glyph unicode="&#x2c6;" horiz-adv-x="1024" d="M135 1237h207l170 186l170 -186h207l-271 346h-212z" />
<glyph unicode="&#x2dc;" horiz-adv-x="1024" d="M141 1401l115 -117q41 41 67.5 50t53.5 9q31 0 58.5 -10t56.5 -26q43 -25 77.5 -36t79.5 -11q59 0 111.5 26.5t120.5 93.5l-119 117q-41 -41 -67.5 -50t-53.5 -9q-31 0 -56.5 9t-56.5 28q-43 27 -76.5 37t-80.5 10q-59 0 -110.5 -26.5t-119.5 -94.5z" />
<glyph unicode="&#x2000;" horiz-adv-x="1038" />
<glyph unicode="&#x2001;" horiz-adv-x="2078" />
<glyph unicode="&#x2002;" horiz-adv-x="1038" />
<glyph unicode="&#x2003;" horiz-adv-x="2078" />
<glyph unicode="&#x2004;" horiz-adv-x="692" />
<glyph unicode="&#x2005;" horiz-adv-x="518" />
<glyph unicode="&#x2006;" horiz-adv-x="346" />
<glyph unicode="&#x2007;" horiz-adv-x="346" />
<glyph unicode="&#x2008;" horiz-adv-x="258" />
<glyph unicode="&#x2009;" horiz-adv-x="415" />
<glyph unicode="&#x200a;" horiz-adv-x="114" />
<glyph unicode="&#x2010;" horiz-adv-x="872" d="M121 461h631v248h-631v-248z" />
<glyph unicode="&#x2011;" horiz-adv-x="872" d="M121 461h631v248h-631v-248z" />
<glyph unicode="&#x2012;" horiz-adv-x="872" d="M121 461h631v248h-631v-248z" />
<glyph unicode="&#x2013;" d="M102 461h908v248h-908v-248z" />
<glyph unicode="&#x2014;" horiz-adv-x="2103" d="M121 463h1861v256h-1861v-256z" />
<glyph unicode="&#x2018;" horiz-adv-x="559" d="M139 1206h279v467l-279 -215v-252z" />
<glyph unicode="&#x2019;" horiz-adv-x="559" d="M139 993l279 211v254h-279v-465z" />
<glyph unicode="&#x201a;" horiz-adv-x="555" d="M139 -213l279 213v254h-279v-467z" />
<glyph unicode="&#x201c;" horiz-adv-x="987" d="M139 1206h277v467l-277 -215v-252zM569 1206h279v467l-279 -215v-252z" />
<glyph unicode="&#x201d;" horiz-adv-x="987" d="M139 993l277 211v254h-277v-465zM569 993l279 211v254h-279v-465z" />
<glyph unicode="&#x201e;" horiz-adv-x="993" d="M139 -213l277 213v254h-277v-467zM569 -213l279 213v254h-279v-467z" />
<glyph unicode="&#x2022;" horiz-adv-x="1009" d="M170 684q0 -70 26.5 -130t71.5 -105.5t105.5 -72t130.5 -26.5t130 26.5t105 72t72 105.5t27 130t-27 130t-72 105.5t-105.5 72t-129.5 26.5q-70 0 -130.5 -26.5t-105.5 -72t-71.5 -105.5t-26.5 -130z" />
<glyph unicode="&#x2026;" horiz-adv-x="1732" d="M139 0h291v289h-291v-289zM721 0h289v289h-289v-289zM1305 0h288v289h-288v-289z" />
<glyph unicode="&#x202f;" horiz-adv-x="415" />
<glyph unicode="&#x2039;" horiz-adv-x="716" d="M70 563l510 -508v318l-193 190l193 191v317z" />
<glyph unicode="&#x203a;" horiz-adv-x="716" d="M137 55l510 508l-510 508v-317l195 -191l-195 -190v-318z" />
<glyph unicode="&#x205f;" horiz-adv-x="518" />
<glyph unicode="&#x2122;" horiz-adv-x="1892" d="M92 1284h225v-700h195v700h225v174h-645v-174zM872 584h195v516l164 -322h172l164 322v-516h194v874h-194l-250 -467l-250 467h-195v-874z" />
<glyph unicode="&#xe000;" horiz-adv-x="1065" d="M0 1065h1065v-1065h-1065v1065z" />
<glyph unicode="&#xfb01;" horiz-adv-x="1263" d="M845 1249h273v217h-273v-217zM850 0h266v1067h-266v-1067zM72 834h110v-834h267v834h196v202h-196v117q0 96 92 96h104v226h-151q-82 0 -140.5 -27t-96.5 -70t-56.5 -97t-18.5 -112v-133h-110v-202z" />
<glyph unicode="&#xfb02;" horiz-adv-x="1366" d="M839 305q0 -57 17.5 -111.5t55.5 -97.5t97.5 -69.5t141.5 -26.5h151v225h-102q-51 0 -72.5 24.5t-21.5 72.5v1136h-267v-1153zM72 834h110v-834h267v834h196v202h-196v117q0 96 92 96h104v226h-151q-82 0 -140.5 -27t-96.5 -70t-56.5 -97t-18.5 -112v-133h-110v-202z" />
<glyph unicode="&#xfb03;" horiz-adv-x="1964" d="M1546 1249h273v217h-273v-217zM1551 0h266v1067h-266v-1067zM772 834h110v-834h267v834h196v202h-196v117q0 96 92 96h104v226h-151q-82 0 -140.5 -27t-96.5 -70t-56.5 -97t-18.5 -112v-133h-110v-202zM72 834h110v-834h267v834h196v202h-196v117q0 96 92 96h104v226 h-151q-82 0 -140.5 -27t-96.5 -70t-56.5 -97t-18.5 -112v-133h-110v-202z" />
<glyph unicode="&#xfb04;" horiz-adv-x="2066" d="M1540 305q0 -57 17.5 -111.5t55.5 -97.5t97.5 -69.5t141.5 -26.5h151v225h-102q-51 0 -72.5 24.5t-21.5 72.5v1136h-267v-1153zM772 834h110v-834h267v834h196v202h-196v117q0 96 92 96h104v226h-151q-82 0 -140.5 -27t-96.5 -70t-56.5 -97t-18.5 -112v-133h-110v-202z M72 834h110v-834h267v834h196v202h-196v117q0 96 92 96h104v226h-151q-82 0 -140.5 -27t-96.5 -70t-56.5 -97t-18.5 -112v-133h-110v-202z" />
</font>
</defs>
</svg>
